video flip

Videos are being flipped in 4.3 Jetpack, these are not live stream, stored on the hard disk

image url
https://ibb.co/gTpX4Md

[source2]
enable=1
#Type - 1=CameraV4L2 2=URI 3=MultiURI 4=RTSP
type=3
#orginal#uri=file:/media/LFS/PIXEL_4K_30FPS_INORBIT01.mp4
uri=file:/media/LFS/PIXEL_4K_30FPS_IKEA01.mp4
num-sources=1
gpu-id=0
# (0): memtype_device   - Memory type Device
# (1): memtype_pinned   - Memory type Host Pinned
# (2): memtype_unified  - Memory type Unified
cudadec-memtype=0

[source3]
enable=3
#Type - 1=CameraV4L2 2=URI 3=MultiURI 4=RTSP
type=3
uri=file:/media/LFS/PIXEL_4K_30FPS_INORBIT02.mp4
num-sources=1
gpu-id=0
# (0): memtype_device   - Memory type Device
# (1): memtype_pinned   - Memory type Host Pinned
# (2): memtype_unified  - Memory type Unified
cudadec-memtype=0
mediainfo PIXEL_4K_30FPS_INORBIT01.mp4
General
Complete name                            : PIXEL_4K_30FPS_INORBIT01.mp4
Format                                   : MPEG-4
Format profile                           : Base Media / Version 2
Codec ID                                 : mp42 (isom/mp42)
File size                                : 1.45 GiB
Duration                                 : 4 min 19 s
Overall bit rate                         : 48.1 Mb/s
Encoded date                             : UTC 2019-12-19 05:45:19
Tagged date                              : UTC 2019-12-19 05:45:19
xyz                                      : +17.4337+078.3846/
com.android.version                      : 10

Video
ID                                       : 2
Format                                   : AVC
Format/Info                              : Advanced Video Codec
Format profile                           : High@L5.1
Format settings                          : CABAC / 1 Ref Frames
Format settings, CABAC                   : Yes
Format settings, ReFrames                : 1 frame
Format settings, GOP                     : M=1, N=30
Codec ID                                 : avc1
Codec ID/Info                            : Advanced Video Coding
Duration                                 : 4 min 19 s
Source duration                          : 4 min 19 s
Bit rate                                 : 48.0 Mb/s
Width                                    : 3 840 pixels
Height                                   : 2 160 pixels
Display aspect ratio                     : 16:9
Rotation                                 : 180°
Frame rate mode                          : Variable
Frame rate                               : 30.000 FPS
Minimum frame rate                       : 29.880 FPS
Maximum frame rate                       : 30.161 FPS
Standard                                 : NTSC
Color space                              : YUV
Chroma subsampling                       : 4:2:0
Bit depth                                : 8 bits
Scan type                                : Progressive
Bits/(Pixel*Frame)                       : 0.193
Stream size                              : 1.45 GiB (100%)
Source stream size                       : 1.45 GiB (100%)
Title                                    : VideoHandle
Language                                 : English
Encoded date                             : UTC 2019-12-19 05:45:19
Tagged date                              : UTC 2019-12-19 05:45:19
Color range                              : Full
Color primaries                          : BT.601 NTSC
Transfer characteristics                 : BT.601
Matrix coefficients                      : BT.601
mdhd_Duration                            : 259221

Audio
ID                                       : 1
Format                                   : AAC
Format/Info                              : Advanced Audio Codec
Format profile                           : LC
Codec ID                                 : mp4a-40-2
Duration                                 : 4 min 19 s
Source duration                          : 4 min 19 s
Bit rate mode                            : Constant
Bit rate                                 : 96.0 kb/s
Channel(s)                               : 1 channel
Channel positions                        : Front: C
Sampling rate                            : 48.0 kHz
Frame rate                               : 46.875 FPS (1024 SPF)
Compression mode                         : Lossy
Stream size                              : 2.97 MiB (0%)
Source stream size                       : 2.97 MiB (0%)
Title                                    : SoundHandle
Language                                 : English
Encoded date                             : UTC 2019-12-19 05:45:19
Tagged date                              : UTC 2019-12-19 05:45:19
mdhd_Duration                            : 259203

About this issue, do you use default sample? i mean not modified, since i can not repro the issue you mentioned,
Can you specify detailed how to repro this issue?

This is a hardware malfunction. Issue is resolved